Akira (2016) 1080p Blu-Ray x264 AAC 5.1

User avatar

Topic Author
Pakistan kusakhan
Registered Member
Registered Member
Reactions:
Posts: 295
Joined: 11 Feb 2015, 2:04 pm
Location: Sialkot

Akira (2016) 1080p Blu-Ray x264 AAC 5.1

#1

Post by kusakhan » 11 Jan 2017, 8:25 pm

[attachment=3]cca88e945df61bbab2d9efc8fe81a6ec.jpg[/attachment]

7200p Blu-Ray Rip x264

Hindi AAC 5.1 Audio

English Subs

SCREENSHOTS
[attachment=2]eeecec87fedbfd16e4d6f2b4bbc2cbe2.th.png[/attachment]
[attachment=1]95656e7e71a174473a43454fe7205954.th.png[/attachment]
[attachment=0]9ea769d322dee6265b6aa5ee9671d6a7.th.png[/attachment]


SPECS


Source: Blu-ray BD50 @ HDT

Format : Matroska
File size : 2.58 GiB
Duration : 2 h 16 min
Overall bit rate : 2 698 kb/s

Video
Format : AVC
Format/Info : Advanced Video Codec
Format profile : High@L4.1
Format settings, CABAC : Yes
Format settings, ReFrames : 5 frames
Codec ID : V_MPEG4/ISO/AVC
Duration : 2 h 16 min
Bit rate : 2 500 kb/s
Width : 1 920 pixels
Height : 800 pixels
Display aspect ratio : 2.40:1
Frame rate mode : Constant
Frame rate : 24.000 FPS
Color space : YUV
Chroma subsampling : 4:2:0
Bit depth : 8 bits
Scan type : Progressive
Bits/(Pixel*Frame) : 0.068
Stream size : 2.39 GiB (93%)
Default : Yes
Forced : No
Color range : Limited
Color primaries : BT.709
Transfer characteristics : BT.709
Matrix coefficients : BT.709

Audio #1
Format : AAC
Format/Info : Advanced Audio Codec
Format profile : LC
Codec ID : A_AAC
Duration : 2 h 16 min
Bit rate : 192 kb/s
Channel(s) : 6 channels
Channel positions : Front: L C R, Side: L R, LFE
Sampling rate : 48.0 kHz
Frame rate : 46.875 FPS (1024 spf)
Compression mode : Lossy
Delay relative to video : 9 ms
Stream size : 188 MiB (7%)
Language : Hindi
Default : Yes
Forced : No

Download
https://www.sendspace.com/file/dr2yju
You do not have the required permissions to view the files attached to this post.
The best preparation for tomorrow is doing your best today....



You must be a registered member and logged in to view the replies in this topic.


Register Login