Golden Advanced Search
Last visit was: less than a minute ago It is currently 17 Jan 2017, 7:58 pm
       

All times are UTC + 5 hours




 [ 1 post ] 
Author Message
PostPosted: 11 Jan 2017, 8:25 pm •  Post # 1
Online
ACTIVE MEMBER
ACTIVE MEMBER
User avatar

Joined: 11 Feb 2015, 2:04 pm
Posts: 172
Location: Sialkot
Has thanked: 33 times
Been thanked: 229 times
cca88e945df61bbab2d9efc8fe81a6ec.jpg



7200p Blu-Ray Rip x264

Hindi AAC 5.1 Audio

English Subs

SCREENSHOTS

eeecec87fedbfd16e4d6f2b4bbc2cbe2.th.png


95656e7e71a174473a43454fe7205954.th.png


9ea769d322dee6265b6aa5ee9671d6a7.th.png




SPECS


Source: Blu-ray BD50 @ HDT

Format : Matroska
File size : 2.58 GiB
Duration : 2 h 16 min
Overall bit rate : 2 698 kb/s

Video
Format : AVC
Format/Info : Advanced Video Codec
Format profile : High@L4.1
Format settings, CABAC : Yes
Format settings, ReFrames : 5 frames
Codec ID : V_MPEG4/ISO/AVC
Duration : 2 h 16 min
Bit rate : 2 500 kb/s
Width : 1 920 pixels
Height : 800 pixels
Display aspect ratio : 2.40:1
Frame rate mode : Constant
Frame rate : 24.000 FPS
Color space : YUV
Chroma subsampling : 4:2:0
Bit depth : 8 bits
Scan type : Progressive
Bits/(Pixel*Frame) : 0.068
Stream size : 2.39 GiB (93%)
Default : Yes
Forced : No
Color range : Limited
Color primaries : BT.709
Transfer characteristics : BT.709
Matrix coefficients : BT.709

Audio #1
Format : AAC
Format/Info : Advanced Audio Codec
Format profile : LC
Codec ID : A_AAC
Duration : 2 h 16 min
Bit rate : 192 kb/s
Channel(s) : 6 channels
Channel positions : Front: L C R, Side: L R, LFE
Sampling rate : 48.0 kHz
Frame rate : 46.875 FPS (1024 spf)
Compression mode : Lossy
Delay relative to video : 9 ms
Stream size : 188 MiB (7%)
Language : Hindi
Default : Yes
Forced : No


Download

https://www.sendspace.com/file/dr2yju

_________________
The best preparation for tomorrow is doing your best today....


Top
 Profile Send private message  
 
 [ 1 post ] 

All times are UTC + 5 hours


Who Is Online

Users browsing this forum: CommonCrawl [Bot] and 0 guests


   Similar Topics   Author   Replies   Views   Last Post 
There are no new unread posts for this topic. Miguel-Coffee-HD-1080p-x264-2015

in HOLLYWOOD

ayanahmed

0

32

18 Jun 2015, 6:05 am

ayanahmed View the latest post

There are no new unread posts for this topic. VENDETTA (2015) 1080p BluRay x264

in HOLLYWOOD

Balios13

0

80

19 Aug 2015, 1:01 pm

Balios13 View the latest post

There are no new unread posts for this topic. Ellie Goulding-On My Mind-HD-1080p-x264

in HOLLYWOOD

ayanahmed

0

34

29 Sep 2015, 10:23 am

ayanahmed View the latest post

There are no new unread posts for this topic. Avicii-Pure Grinding-HD-1080p-x264-2015

in HOLLYWOOD

ayanahmed

0

34

10 Sep 2015, 5:45 am

ayanahmed View the latest post

There are no new unread posts for this topic. Justin Bieber-What Do You Mean-HD-1080p 720p-x264-2015

in HOLLYWOOD

ayanahmed

0

130

31 Aug 2015, 12:45 pm

ayanahmed View the latest post


You cannot post new topics in this forum
You cannot reply to topics in this forum
You cannot edit your posts in this forum
You cannot delete your posts in this forum
You cannot post attachments in this forum

Search for:
Valid XHTML 1.0 Transitional
News News Site map Site map SitemapIndex SitemapIndex RSS Feed RSS Feed Channel list Channel list
Powered by phpBB® Forum Software © phpBB Group

phpBB SEO